Watch La Prophétie de l'horloge BRrip French Film | The Shadows - The Best Of The Shadows - (2012)-[MP3-320]-[TFM] | Home Page
the secret life of pets Arrow.S06E02.HDTV.x264 LOL ettv Lost in Space 2018 s01e07 The walking dead supergirl s03e21 big bang theory español the crossing The Flash hereditary fear the walking dead s04e07 fear the walking dead S.W.A.T.2017.S01E01.HDTV.x264 KILLERS ettv Ettv masterchef vikings ddr wwe raw street outlaws Legion the expanse westworld s02 star trek discovery español hindi young sheldon ethd 2018 ita krypton Supernatural wwe Brooklyn Nine Nine Gotham arrow español Seal Team Masterchef Australia Blindspot Survivor elementary quantico black panther judge judy S22 Avengers Infinity War etrg italian westworld arrow dtone westworld s02e07 last week tonight deadpool colony tomb raider 2018 killing eve avengers infinity war 2018 deadpool 2 family guy supergirl billions silicon valley tomb raider 13 reasons why evo the 100 etmovies fgt lucifer the originals more s12e13 handmaids tale into the badlands READY PLAYER ONE 
Warning! Use a VPN When Downloading Torrents!
Your IP Address is 172.81.144.194. Location is United States
Your Internet Provider is tracking your torrent activity! Hide your IP ADDRESS with a VPN!
We strongly recommend using Trust.Zone VPN to anonymize your torrenting. It's FREE!
Get VPN Now for FREE!
ETTV Recommended TV Shows
The.100.S05E06.WEBRip.x264-PBS[ettv] torrent
Carter.S01E04.HDTV.x264-aAF[ettv] torrent
Legion.S02E10.HDTV.x264-SVA[ettv] torrent
Animal.Kingdom.US.S03E02.WEBRip.x264-TBS[ettv] torrent

ETTV Recommended Xvid
Chapter.and.Verse.2017.HDRip.XViD-ETRG torrent
How.to.Talk.to.Girls.at.Parties.2017.BRRip.XViD-ETRG torrent
Midnight.Sun.2018.HDRip.XViD-ETRG torrent
The.Rake.2018.HDRip.XViD-ETRG torrent

ETTV Recommended HD
Tomb.Raider.2018.Multi.BluRay.1080p.x264.Atmos.7.1-DTOne torrent
The Foreigner 2017 Blu-ray 1080p x264 DTS-HDMA 5.1-DTOne torrent
Chapter.and.Verse.2017.720p.HDRip.X264.AAC-ETRG torrent
Midnight.Sun.2018.1080p.WEB-DL.H264.AC3-EVO[EtHD] torrent

ETTV Recommended Cam
Breaking in 2018 HDCAM ENG X264-THAN0S torrent
Kings 2018 HDCAM ENG X264-THAN0S torrent
Solo A Star Wars Story 2018 NEW HDTS XViD.AC3-ETRG torrent
Deadpool 2 2018 HD-TS.XViD.AC3-ETRG torrent

ETTV Recommended Foreign
Aksar.2.(2018).1-3.HDTv.Rip.x264.AC3-DTOne.Exclusive torrent
Veer (Vivegam) (2018) HDRip x264 (Hindi-Telugu-Tamil)  - DTOne torrent
Sethupathi (2017) 720p UntoucheD WEB HD - AVC - AAC - E-Subs - DTOne Exclusive torrent
Missing.(2018).1-3.Web.Rip.x264.AC3.ESub-DTOne.Exclusive torrent

Social

Loading...

Download Torrent "Community (2009) Season 5 S05 (1080p AMZN WEB-DL x265 HEVC 10bit EAC3 6.0 R..."

IMDB Details
Description:

A suspended lawyer is forced to enroll in a community college with an eclectic staff and student body.

Genre:

Comedy

Download Torrent (Magnet)
Download Torrent (File)
Seeds: 48
Leechers: 23
Completed: 482 
Last Checked: 04-06-2018 06:16:34


Loading...
Details
Title:Community (2009) Season 5 S05 (1080p AMZN WEB-DL x265 HEVC 10bit EAC3 6.0 R...
Description:


Encode Screenshots (Click for full quality)







Media Information
General
Format                                   : Matroska
Format version                           : Version 4 / Version 2
File size                                : 351 MiB
Duration                                 : 21 min 34 s
Overall bit rate                         : 2 274 kb/s
Encoded date                             : UTC 2018-06-03 10:24:24
Writing application                      : mkvmerge v23.0.0 ('The Bride Said No') 64-bit
Writing library                          : libebml v1.3.6 + libmatroska v1.4.9

Video
ID                                       : 1
Format                                   : HEVC
Format/Info                              : High Efficiency Video Coding
Format profile                           : Main [email protected]@Main
Codec ID                                 : V_MPEGH/ISO/HEVC
Duration                                 : 21 min 34 s
Bit rate                                 : 1 632 kb/s
Width                                    : 1 920 pixels
Height                                   : 1 080 pixels
Display aspect ratio                     : 16:9
Frame rate mode                          : Constant
Frame rate                               : 23.976 (24000/1001) FPS
Color space                              : YUV
Chroma subsampling                       : 4:2:0
Bit depth                                : 10 bits
Bits/(Pixel*Frame)                       : 0.033
Stream size                              : 252 MiB (72%)
Writing library                          : x265 2.8+1-478bfe2b7673:[Windows][GCC 8.1.0][64 bit] 10bit
Encoding settings                        : cpuid=1111039 / frame-threads=3 / numa-pools=12 / wpp / no-pmode / no-pme / no-psnr / no-ssim / log-level=2 / input-csp=1 / input-res=1920x1080 / interlace=0 / total-frames=31034 / level-idc=0 / high-tier=1 / uhd-bd=0 / ref=4 / no-allow-non-conformance / no-repeat-headers / annexb / no-aud / no-hrd / info / hash=0 / no-temporal-layers / open-gop / min-keyint=23 / keyint=250 / gop-lookahead=0 / bframes=8 / b-adapt=2 / b-pyramid / bframe-bias=0 / rc-lookahead=65 / lookahead-slices=4 / scenecut=40 / radl=0 / no-intra-refresh / ctu=64 / min-cu-size=8 / no-rect / no-amp / max-tu-size=32 / tu-inter-depth=1 / tu-intra-depth=1 / limit-tu=0 / rdoq-level=2 / dynamic-rd=0.00 / no-ssim-rd / signhide / no-tskip / nr-intra=0 / nr-inter=0 / no-constrained-intra / strong-intra-smoothing / max-merge=3 / limit-refs=3 / limit-modes / me=3 / subme=5 / merange=57 / temporal-mvp / weightp / weightb / no-analyze-src-pics / deblock=-1:-1 / sao / no-sao-non-deblock / rd=4 / no-early-skip / rskip / no-fast-intra / no-tskip-fast / no-cu-lossless / no-b-intra / no-splitrd-skip / rdpenalty=0 / psy-rd=1.65 / psy-rdoq=1.00 / no-rd-refine / no-lossless / cbqpoffs=0 / crqpoffs=0 / rc=crf / crf=22.0 / qcomp=0.60 / qpstep=4 / stats-write=0 / stats-read=0 / ipratio=1.40 / pbratio=1.30 / aq-mode=3 / aq-strength=1.00 / cutree / zone-count=0 / no-strict-cbr / qg-size=32 / no-rc-grain / qpmax=69 / qpmin=0 / no-const-vbv / sar=0 / overscan=0 / videoformat=5 / range=0 / colorprim=2 / transfer=2 / colormatrix=2 / chromaloc=0 / display-window=0 / max-cll=0,0 / min-luma=0 / max-luma=1023 / log2-max-poc-lsb=8 / vui-timing-info / vui-hrd-info / slices=1 / no-opt-qp-pps / no-opt-ref-list-length-pps / no-multi-pass-opt-rps / scenecut-bias=0.00 / no-opt-cu-delta-qp / aq-motion / no-hdr / no-hdr-opt / no-dhdr10-opt / no-idr-recovery-sei / analysis-reuse-level=5 / scale-factor=0 / refine-intra=0 / refine-inter=0 / refine-mv=0 / no-limit-sao / ctu-info=0 / no-lowpass-dct / refine-mv-type=0 / copy-pic=1 / max-ausize-factor=1.0 / no-dynamic-refine / no-single-sei
Default                                  : Yes
Forced                                   : No

Audio
ID                                       : 2
Format                                   : E-AC-3
Format/Info                              : Enhanced Audio Coding 3
Format settings, Endianness              : Big
Codec ID                                 : A_EAC3
Duration                                 : 21 min 34 s
Bit rate mode                            : Constant
Bit rate                                 : 640 kb/s
Channel(s)                               : 6 channels
Channel positions                        : Front: L C R, Side: L R, LFE
Sampling rate                            : 48.0 kHz
Frame rate                               : 187.500 FPS (256 spf)
Compression mode                         : Lossy
Stream size                              : 98.8 MiB (28%)
Language                                 : English
Default                                  : No
Forced                                   : No

Subtitle
ID                                       : 3
Format                                   : UTF-8
Codec ID                                 : S_TEXT/UTF8
Codec ID/Info                            : UTF-8 Plain Text
Duration                                 : 21 min 22 s
Bit rate                                 : 110 b/s
Count of elements                        : 564
Stream size                              : 17.2 KiB (0%)
Language                                 : English
Default                                  : No
Forced                                   : No

Source Information
Release : Community S05 1080p WEB-DL DD+ 5.1 x264-TrollHD (21.53 GBs)



Note from QxR:
Whilst we are happy for our releases to be re-posted on a platform we aren't on, please do so in an 'as-is' format. We ask that you do not create a new torrent, include all descriptions you see above including the QxR logo, tags, notes and screenshots. If you'd like to become a permanent poster on a website we don't post to, feel free to get in contact with a QxR member.
Category:TV > HEVC/x265
Lang:English  English
Total Size:5.43 GB
Info Hash:e134552d48cfd26e85d2f8c9b369668b7ba23fce
Added By:QxR
Date Added:04-06-2018 06:16:30

Files

File List: 
 File Size
Community (2009) - S05E01 - Repilot (1080p AMZN WEB-DL x265 RZeroX).mkv351 MB
Community (2009) - S05E02 - Introduction to Teaching (1080p AMZN WEB-DL x265 RZeroX).mkv417 MB
Community (2009) - S05E03 - Basic Intergluteal Numismatics (1080p AMZN WEB-DL x265 RZeroX).mkv396 MB
Community (2009) - S05E04 - Cooperative Polygraphy (1080p AMZN WEB-DL x265 RZeroX).mkv318 MB
Community (2009) - S05E05 - Geothermal Escapism (1080p AMZN WEB-DL x265 RZeroX).mkv439 MB
Community (2009) - S05E06 - Analysis of Cork-Based Networking (1080p AMZN WEB-DL x265 RZeroX).mkv379 MB
Community (2009) - S05E07 - Bondage and Beta Male Sexuality (1080p AMZN WEB-DL x265 RZeroX).mkv391 MB
Community (2009) - S05E08 - App Development and Condiments (1080p AMZN WEB-DL x265 RZeroX).mkv480 MB
Community (2009) - S05E09 - VCR Maintenance and Educational Publishing (1080p AMZN WEB-DL x265 RZeroX).mkv386 MB
Community (2009) - S05E10 - Advanced Advanced Dungeons & Dragons (1080p AMZN WEB-DL x265 RZeroX).mkv351 MB
Community (2009) - S05E11 - G.I. Jeff (1080p AMZN WEB-DL x265 RZeroX).mkv865 MB
Community (2009) - S05E12 - Basic Story (1080p AMZN WEB-DL x265 RZeroX).mkv408 MB
Community (2009) - S05E13 - Basic Sandwich (1080p AMZN WEB-DL x265 RZeroX).mkv385 MB



Loading...
Comments

There are currently no comments. Be the first one to write something !

Disclaimer: None of the files shown here are actually hosted or transmitted by this server. The links are provided solely by this site's users. The site moderation is also a service provided by the site's users. The administrator of this site (ettv.tv) cannot be held responsible for what its users post, or any other actions of its users. You may not use this site to distribute or download any material when you do not have the legal rights to do so. It is your own responsibility to adhere to these terms.