Skyscaper.2018.1080p.KORSUB.HDRip.x264.AAC2.0-STUTTERSHIT | IMDb: 7.9 HD The Lucky Man | Tokyo Joe (1949)
Arrow.S06E02.HDTV.x264 LOL ettv black panther Arrow 13 reasons why ddr six legion fear the walking dead elementary evo Motogp 2018 The walking dead killing eve deadpool last week tonight The Expanse into the badlands The 100 handmaids tale westworld s02e07 fgt britains s12e18 the flash tomb raider 2018 MasterChef tomb raider hereditary DTOne deadpool 2 westworld The Americans star trek discovery español colony westworld s02 Lost in Space 2018 s01e07 2018 ita Supernatural supergirl hindi big bang theory español lucifer family guy silicon valley judge judy S22 avengers infinity war 2018 Gotham arrow español S.W.A.T.2017.S01E01.HDTV.x264 KILLERS ettv more s12e13 seal team fear the walking dead s04e07 young sheldon Avengers Infinity war billions dtone quantico the secret life of pets Brooklyn Nine Nine etmovies instinct blindspot krypton masterchef australia ettv Survivor italian etrg ethd twitter the originals ready player one 
Warning! Use a VPN When Downloading Torrents!
Your IP Address is 172.81.144.194. Location is United States
Your Internet Provider is tracking your torrent activity! Hide your IP ADDRESS with a VPN!
We strongly recommend using Trust.Zone VPN to anonymize your torrenting. It's FREE!
Get VPN Now for FREE!
ETTV Recommended TV Shows
Elementary.S06E06.HDTV.x264-LOL[ettv] torrent
The.Crossing.S01E09.HDTV.x264-KILLERS[ettv] torrent
Supergirl.S03E21.HDTV.x264-SVA[ettv] torrent
MasterChef.Australia.S10E22.HDTV.x264-SPC[ettv] torrent

ETTV Recommended Xvid
Chapter.and.Verse.2017.HDRip.XViD-ETRG torrent
How.to.Talk.to.Girls.at.Parties.2017.BRRip.XViD-ETRG torrent
Midnight.Sun.2018.HDRip.XViD-ETRG torrent
The.Rake.2018.HDRip.XViD-ETRG torrent

ETTV Recommended HD
The.Square.2017.Multi.Bluray.x264.DTS-HDMA.5.1-DTOne torrent
Tomb.Raider.2018.Multi.BluRay.1080p.x264.Atmos.7.1-DTOne torrent
The Foreigner 2017 Blu-ray 1080p x264 DTS-HDMA 5.1-DTOne torrent
Chapter.and.Verse.2017.720p.HDRip.X264.AAC-ETRG torrent

ETTV Recommended Cam
Breaking in 2018 HDCAM ENG X264-THAN0S torrent
Kings 2018 HDCAM ENG X264-THAN0S torrent
Solo A Star Wars Story 2018 NEW HDTS XViD.AC3-ETRG torrent
Deadpool 2 2018 NEW 720p HD-TC X264-CPG torrent

ETTV Recommended Foreign
Aksar.2.(2018).1-3.HDTv.Rip.x264.AC3-DTOne.Exclusive torrent
Veer (Vivegam) (2018) HDRip x264 (Hindi-Telugu-Tamil)  - DTOne torrent
Sethupathi (2017) 720p UntoucheD WEB HD - AVC - AAC - E-Subs - DTOne Exclusive torrent
Missing.(2018).1-3.Web.Rip.x264.AC3.ESub-DTOne.Exclusive torrent

Social

Loading...

Download Torrent "Legion (2017) - S02E09 (1080p WEB x265 HEVC 10bit EAC3 6.0 RZeroX) [QxR]"

IMDB Details
Description:

David Haller is a troubled young man diagnosed as schizophrenic, but after a strange encounter, he discovers special powers that will change his life forever.

Genre:

Action, Drama, Sci-Fi

Download Torrent (Magnet)
Download Torrent (File)
Seeds: 28
Leechers: 11
Completed: 704 
Last Checked: 01-06-2018 05:25:23


Loading...
Details
Title:Legion (2017) - S02E09 (1080p WEB x265 HEVC 10bit EAC3 6.0 RZeroX) [QxR]
Description:


Encode Screenshots (Click for full quality)







Media Information
General
Format                                   : Matroska
Format version                           : Version 4 / Version 2
File size                                : 591 MiB
Duration                                 : 41 min 24 s
Overall bit rate                         : 1 996 kb/s
Encoded date                             : UTC 2018-05-30 17:55:36
Writing application                      : mkvmerge v23.0.0 ('The Bride Said No') 64-bit
Writing library                          : libebml v1.3.6 + libmatroska v1.4.9

Video
ID                                       : 1
Format                                   : HEVC
Format/Info                              : High Efficiency Video Coding
Format profile                           : Main [email protected]@Main
Codec ID                                 : V_MPEGH/ISO/HEVC
Duration                                 : 41 min 24 s
Bit rate                                 : 1 354 kb/s
Width                                    : 1 920 pixels
Height                                   : 1 080 pixels
Display aspect ratio                     : 16:9
Frame rate mode                          : Constant
Frame rate                               : 23.976 (24000/1001) FPS
Color space                              : YUV
Chroma subsampling                       : 4:2:0
Bit depth                                : 10 bits
Bits/(Pixel*Frame)                       : 0.027
Stream size                              : 401 MiB (68%)
Writing library                          : x265 2.8+1-478bfe2b7673:[Windows][GCC 8.1.0][64 bit] 10bit
Encoding settings                        : cpuid=1111039 / frame-threads=3 / numa-pools=12 / wpp / no-pmode / no-pme / no-psnr / no-ssim / log-level=2 / input-csp=1 / input-res=1920x1080 / interlace=0 / total-frames=59560 / level-idc=0 / high-tier=1 / uhd-bd=0 / ref=4 / no-allow-non-conformance / no-repeat-headers / annexb / no-aud / no-hrd / info / hash=0 / no-temporal-layers / open-gop / min-keyint=23 / keyint=250 / gop-lookahead=0 / bframes=8 / b-adapt=2 / b-pyramid / bframe-bias=0 / rc-lookahead=70 / lookahead-slices=4 / scenecut=40 / radl=0 / no-intra-refresh / ctu=64 / min-cu-size=8 / no-rect / no-amp / max-tu-size=32 / tu-inter-depth=1 / tu-intra-depth=1 / limit-tu=0 / rdoq-level=2 / dynamic-rd=0.00 / no-ssim-rd / signhide / no-tskip / nr-intra=0 / nr-inter=0 / no-constrained-intra / strong-intra-smoothing / max-merge=3 / limit-refs=3 / limit-modes / me=3 / subme=5 / merange=57 / temporal-mvp / weightp / weightb / no-analyze-src-pics / deblock=-1:-1 / sao / no-sao-non-deblock / rd=4 / no-early-skip / rskip / no-fast-intra / no-tskip-fast / no-cu-lossless / no-b-intra / no-splitrd-skip / rdpenalty=0 / psy-rd=1.65 / psy-rdoq=1.00 / no-rd-refine / no-lossless / cbqpoffs=0 / crqpoffs=0 / rc=crf / crf=20.0 / qcomp=0.60 / qpstep=4 / stats-write=0 / stats-read=0 / ipratio=1.40 / pbratio=1.30 / aq-mode=3 / aq-strength=1.00 / cutree / zone-count=0 / no-strict-cbr / qg-size=32 / no-rc-grain / qpmax=69 / qpmin=0 / no-const-vbv / sar=0 / overscan=0 / videoformat=5 / range=0 / colorprim=2 / transfer=2 / colormatrix=2 / chromaloc=0 / display-window=0 / max-cll=0,0 / min-luma=0 / max-luma=1023 / log2-max-poc-lsb=8 / vui-timing-info / vui-hrd-info / slices=1 / no-opt-qp-pps / no-opt-ref-list-length-pps / no-multi-pass-opt-rps / scenecut-bias=0.00 / no-opt-cu-delta-qp / aq-motion / no-hdr / no-hdr-opt / no-dhdr10-opt / no-idr-recovery-sei / analysis-reuse-level=5 / scale-factor=0 / refine-intra=0 / refine-inter=0 / refine-mv=0 / no-limit-sao / ctu-info=0 / no-lowpass-dct / refine-mv-type=0 / copy-pic=1 / max-ausize-factor=1.0 / no-dynamic-refine / no-single-sei
Default                                  : Yes
Forced                                   : No

Audio
ID                                       : 2
Format                                   : E-AC-3
Format/Info                              : Enhanced Audio Coding 3
Format settings, Endianness              : Big
Codec ID                                 : A_EAC3
Duration                                 : 41 min 24 s
Bit rate mode                            : Constant
Bit rate                                 : 640 kb/s
Channel(s)                               : 6 channels
Channel positions                        : Front: L C R, Side: L R, LFE
Sampling rate                            : 48.0 kHz
Frame rate                               : 187.500 FPS (256 spf)
Compression mode                         : Lossy
Stream size                              : 190 MiB (32%)
Language                                 : English
Default                                  : No
Forced                                   : No

Subtitle #1
ID                                       : 3
Format                                   : UTF-8
Codec ID                                 : S_TEXT/UTF8
Codec ID/Info                            : UTF-8 Plain Text
Duration                                 : 40 min 26 s
Bit rate                                 : 31 b/s
Count of elements                        : 427
Stream size                              : 9.31 KiB (0%)
Language                                 : English
Default                                  : No
Forced                                   : No

Subtitle #2
ID                                       : 4
Format                                   : UTF-8
Codec ID                                 : S_TEXT/UTF8
Codec ID/Info                            : UTF-8 Plain Text
Duration                                 : 41 min 19 s
Bit rate                                 : 42 b/s
Count of elements                        : 578
Stream size                              : 12.8 KiB (0%)
Title                                    : SDH
Language                                 : English
Default                                  : No
Forced                                   : No

Source Information
Release : Legion.S02E09.1080p.WEB.H264-DEFLATE.mkv (2.86 GBs)



Note from QxR:
Whilst we are happy for our releases to be re-posted on a platform we aren't on, please do so in an 'as-is' format. We ask that you do not create a new torrent, include all descriptions you see above including the QxR logo, tags, notes and screenshots. If you'd like to become a permanent poster on a website we don't post to, feel free to get in contact with a QxR member.
Category:TV > HEVC/x265
Lang:English  English
Total Size:591 MB
Info Hash:e17570bef8a4e9eb04ca75be011190a3c5cc3c0c
Added By:QxR
Date Added:01-06-2018 05:25:20

Files

File List: 
 File Size
Legion (2017) - S02E09 - Chapter 17 (1080p WEB x265 RZeroX).mkv591 MB



Loading...
Comments

There are currently no comments. Be the first one to write something !

Disclaimer: None of the files shown here are actually hosted or transmitted by this server. The links are provided solely by this site's users. The site moderation is also a service provided by the site's users. The administrator of this site (ettv.tv) cannot be held responsible for what its users post, or any other actions of its users. You may not use this site to distribute or download any material when you do not have the legal rights to do so. It is your own responsibility to adhere to these terms.