Fifty Shades Freed 2018 NEW 720p HD-TS X264-UNiQUE | Priyanka Chopra | Ver Escándalo (Scandal) (2015)
the secret life of pets Arrow.S06E02.HDTV.x264 LOL ettv Lost in Space 2018 s01e07 The walking dead supergirl s03e21 big bang theory español the crossing The Flash hereditary fear the walking dead s04e07 fear the walking dead S.W.A.T.2017.S01E01.HDTV.x264 KILLERS ettv Ettv masterchef vikings ddr wwe raw street outlaws Legion the expanse westworld s02 star trek discovery español hindi young sheldon ethd 2018 ita krypton Supernatural wwe Brooklyn Nine Nine Gotham arrow español Seal Team Masterchef Australia Blindspot Survivor elementary quantico black panther judge judy S22 Avengers Infinity War etrg italian westworld arrow dtone westworld s02e07 last week tonight deadpool colony tomb raider 2018 killing eve avengers infinity war 2018 deadpool 2 family guy supergirl billions silicon valley tomb raider 13 reasons why evo the 100 etmovies fgt lucifer the originals more s12e13 handmaids tale into the badlands READY PLAYER ONE 
Warning! Use a VPN When Downloading Torrents!
Your IP Address is 172.81.144.194. Location is United States
Your Internet Provider is tracking your torrent activity! Hide your IP ADDRESS with a VPN!
We strongly recommend using Trust.Zone VPN to anonymize your torrenting. It's FREE!
Get VPN Now for FREE!
ETTV Recommended TV Shows
Supergirl.S03E21.HDTV.x264-SVA[ettv] torrent
The.100.S05E06.WEBRip.x264-PBS[ettv] torrent
The.Fosters.2013.S05E21.WEB.x264-TBS[ettv] torrent
Carter.S01E04.HDTV.x264-aAF[ettv] torrent

ETTV Recommended Xvid
Chapter.and.Verse.2017.HDRip.XViD-ETRG torrent
How.to.Talk.to.Girls.at.Parties.2017.BRRip.XViD-ETRG torrent
Midnight.Sun.2018.HDRip.XViD-ETRG torrent
The.Rake.2018.HDRip.XViD-ETRG torrent

ETTV Recommended HD
Tomb.Raider.2018.Multi.BluRay.1080p.x264.Atmos.7.1-DTOne torrent
The Foreigner 2017 Blu-ray 1080p x264 DTS-HDMA 5.1-DTOne torrent
Chapter.and.Verse.2017.720p.HDRip.X264.AAC-ETRG torrent
Midnight.Sun.2018.1080p.WEB-DL.H264.AC3-EVO[EtHD] torrent

ETTV Recommended Cam
Breaking in 2018 HDCAM ENG X264-THAN0S torrent
Kings 2018 HDCAM ENG X264-THAN0S torrent
Solo A Star Wars Story 2018 NEW HDTS XViD.AC3-ETRG torrent
Deadpool 2 2018 HD-TS.XViD.AC3-ETRG torrent

ETTV Recommended Foreign
Aksar.2.(2018).1-3.HDTv.Rip.x264.AC3-DTOne.Exclusive torrent
Veer (Vivegam) (2018) HDRip x264 (Hindi-Telugu-Tamil)  - DTOne torrent
Sethupathi (2017) 720p UntoucheD WEB HD - AVC - AAC - E-Subs - DTOne Exclusive torrent
Missing.(2018).1-3.Web.Rip.x264.AC3.ESub-DTOne.Exclusive torrent

Social

Loading...

Download Torrent "McMafia (2018) Season 1 S01 + Extras (1080p BluRay x265 HEVC 10bit AAC 5.1 ..."

IMDB Details
Description:

Alex Godman, the English-raised son of Russian mafia exiles, has spent his life trying to escape the shadow of their past, building his own legitimate business and forging a life with his ...

Genre:

Crime, Drama, Thriller

Download Torrent (Magnet)
Download Torrent (File)
Seeds: 46
Leechers: 56
Completed: 364 
Last Checked: 04-06-2018 07:03:01


Loading...
Details
Title:McMafia (2018) Season 1 S01 + Extras (1080p BluRay x265 HEVC 10bit AAC 5.1 ...
Description:


Encode Screenshots (Click for full quality)









Media Information
General
Format                                   : Matroska
Format version                           : Version 4 / Version 2
File size                                : 1.08 GiB
Duration                                 : 56 min 8 s
Overall bit rate                         : 2 763 kb/s
Movie name                               : McMAFIA D1
Encoded date                             : UTC 2018-05-12 21:28:56
Writing application                      : mkvmerge v12.0.0 ('Trust / Lust') 64bit
Writing library                          : libebml v1.3.4 + libmatroska v1.4.5
Cover                                    : Yes
Attachments                              : cover.jpg

Video
ID                                       : 1
Format                                   : HEVC
Format/Info                              : High Efficiency Video Coding
Format profile                           : Main [email protected]@Main
Codec ID                                 : V_MPEGH/ISO/HEVC
Duration                                 : 56 min 8 s
Bit rate                                 : 2 362 kb/s
Width                                    : 1 920 pixels
Height                                   : 1 080 pixels
Display aspect ratio                     : 16:9
Frame rate mode                          : Constant
Frame rate                               : 25.000 FPS
Color space                              : YUV
Chroma subsampling                       : 4:2:0
Bit depth                                : 10 bits
Bits/(Pixel*Frame)                       : 0.046
Stream size                              : 948 MiB (85%)
Writing library                          : x265 2.7+342-930e3cc385df:[Windows][MSVC 1900][64 bit] 10bit
Encoding settings                        : cpuid=1111039 / frame-threads=3 / numa-pools=8 / wpp / no-pmode / no-pme / no-psnr / no-ssim / log-level=2 / input-csp=1 / input-res=1920x1080 / interlace=0 / total-frames=84200 / level-idc=0 / high-tier=1 / uhd-bd=0 / ref=5 / no-allow-non-conformance / no-repeat-headers / annexb / no-aud / no-hrd / info / hash=0 / no-temporal-layers / open-gop / min-keyint=25 / keyint=250 / gop-lookahead=0 / bframes=8 / b-adapt=2 / b-pyramid / bframe-bias=0 / rc-lookahead=80 / lookahead-slices=4 / scenecut=40 / radl=0 / no-intra-refresh / ctu=64 / min-cu-size=8 / rect / amp / max-tu-size=32 / tu-inter-depth=2 / tu-intra-depth=2 / limit-tu=4 / rdoq-level=1 / dynamic-rd=0.00 / no-ssim-rd / signhide / no-tskip / nr-intra=0 / nr-inter=0 / no-constrained-intra / no-strong-intra-smoothing / max-merge=4 / limit-refs=2 / limit-modes / me=3 / subme=5 / merange=57 / temporal-mvp / weightp / weightb / no-analyze-src-pics / deblock=-3:-3 / no-sao / no-sao-non-deblock / rd=4 / no-early-skip / no-rskip / no-fast-intra / no-tskip-fast / no-cu-lossless / b-intra / no-splitrd-skip / rdpenalty=0 / psy-rd=1.50 / psy-rdoq=1.80 / no-rd-refine / no-lossless / cbqpoffs=0 / crqpoffs=0 / rc=crf / crf=21.5 / qcomp=0.60 / qpstep=4 / stats-write=0 / stats-read=0 / ipratio=1.40 / pbratio=1.30 / aq-mode=3 / aq-strength=0.80 / cutree / zone-count=0 / no-strict-cbr / qg-size=32 / no-rc-grain / qpmax=69 / qpmin=0 / no-const-vbv / sar=0 / overscan=0 / videoformat=5 / range=0 / colorprim=2 / transfer=2 / colormatrix=2 / chromaloc=0 / display-window=0 / max-cll=0,0 / min-luma=0 / max-luma=1023 / log2-max-poc-lsb=8 / vui-timing-info / vui-hrd-info / slices=1 / no-opt-qp-pps / no-opt-ref-list-length-pps / no-multi-pass-opt-rps / scenecut-bias=0.05 / no-opt-cu-delta-qp / no-aq-motion / no-hdr / no-hdr-opt / no-dhdr10-opt / no-idr-recovery-sei / analysis-reuse-level=5 / scale-factor=0 / refine-intra=0 / refine-inter=0 / refine-mv=0 / no-limit-sao / ctu-info=0 / no-lowpass-dct / refine-mv-type=0 / copy-pic=1 / max-ausize-factor=1.0 / no-dynamic-refine / no-single-sei
Default                                  : Yes
Forced                                   : No

Audio
ID                                       : 2
Format                                   : AAC
Format/Info                              : Advanced Audio Codec
Format profile                           : LC
Codec ID                                 : A_AAC
Duration                                 : 56 min 8 s
Bit rate                                 : 384 kb/s
Channel(s)                               : 6 channels
Channel positions                        : Front: L C R, Side: L R, LFE
Sampling rate                            : 48.0 kHz
Frame rate                               : 46.875 FPS (1024 spf)
Compression mode                         : Lossy
Delay relative to video                  : 20 ms
Stream size                              : 156 MiB (14%)
Language                                 : English
Default                                  : Yes
Forced                                   : No

Subtitle
ID                                       : 3
Format                                   : PGS
Muxing mode                              : zlib
Codec ID                                 : S_HDMV/PGS
Codec ID/Info                            : Picture based subtitle format used on BDs/HD-DVDs
Duration                                 : 54 min 33 s
Bit rate                                 : 10.5 kb/s
Count of elements                        : 1446
Stream size                              : 4.09 MiB (0%)
Language                                 : English
Default                                  : No
Forced                                   : No

Menu
00:00:00.000                             : en:Chapter 01
00:09:45.160                             : en:Chapter 02
00:20:17.200                             : en:Chapter 03
00:29:41.160                             : en:Chapter 04
00:39:40.480                             : en:Chapter 05
00:48:43.360                             : en:Chapter 06

Source Information
Release : McMafia.S01.1080p.GBR.Blu-ray.AVC.DTS-HD.MA.5.1-BeyondHD (Thanks!)



Note from QxR:
Whilst we are happy for our releases to be re-posted on a platform we aren't on, please do so in an 'as-is' format. We ask that you do not create a new torrent, include all descriptions you see above including the QxR logo, tags, notes and screenshots. If you'd like to become a permanent poster on a website we don't post to, feel free to get in contact with a QxR member.
Category:TV > HEVC/x265
Lang:English  English
Total Size:8.77 GB
Info Hash:a76fb4dec1cf0aaf85a21ca48ddece153d81543c
Added By:QxR
Date Added:04-06-2018 07:02:58

Files

File List: 
 File Size
Featurettes/Bringing The McMafia World To Life.mkv141 MB
Featurettes/Menu Art.mkv128 MB
Featurettes/The Cast.mkv57 MB
Featurettes/The McMafia World.mkv89 MB
McMafia (2018) - S01E01 - Episode 1 (1080p BluRay x265 RCVR).mkv1.08 GB
McMafia (2018) - S01E02 - Episode 2 (1080p BluRay x265 RCVR).mkv1.07 GB
McMafia (2018) - S01E03 - Episode 3 (1080p BluRay x265 RCVR).mkv1.03 GB
McMafia (2018) - S01E04 - Episode 4 (1080p BluRay x265 RCVR).mkv1.07 GB
McMafia (2018) - S01E05 - Episode 5 (1080p BluRay x265 RCVR).mkv1.06 GB
McMafia (2018) - S01E06 - Episode 6 (1080p BluRay x265 RCVR).mkv951 MB
McMafia (2018) - S01E07 - Episode 7 (1080p BluRay x265 RCVR).mkv1.05 GB
McMafia (2018) - S01E08 - Episode 8 (1080p BluRay x265 RCVR).mkv1.08 GB



Loading...
Comments

There are currently no comments. Be the first one to write something !

Disclaimer: None of the files shown here are actually hosted or transmitted by this server. The links are provided solely by this site's users. The site moderation is also a service provided by the site's users. The administrator of this site (ettv.tv) cannot be held responsible for what its users post, or any other actions of its users. You may not use this site to distribute or download any material when you do not have the legal rights to do so. It is your own responsibility to adhere to these terms.