aLaCarte-Verleih | VoD-Streaming | DVD Blu-ray Abo
westworld judge judy S22 Fear the walking dead real time with bill maher brooklyn nine nine Lost in Space 2018 s01e07 early man big bang theory español supergirl expanse ettv Supernatural Ano hana The Flower We Saw That Day ready player one avengers infinity war 2018 real time arrow español tomb raider quantico Vikings the expanse ufc ddr Arrow evo fgt friday night dinner legion krypton The Flash more s12e10 westworld s02e06 Hindi handmaids tale 13 reasons why Into the badlands The originals drag race s10e11 star trek discovery español S.W.A.T.2017.S01E01.HDTV.x264 KILLERS ettv Lucifer the 100 the walking dead Survivor black panther ita etrg billions the handmaids tale black panther The Americans etmovies Colony elementary Avengers Infinity war the secret life of pets Deadpool 2 Silicon Valley killing eve humans ethd animal kingdom six tomb raider 2018 Homeland deadpool Gotham bill maher dtone britains s12e16 
Warning! Use a VPN When Downloading Torrents!
Your IP Address is 172.81.144.194. Location is United States
Your Internet Provider is tracking your torrent activity! Hide your IP ADDRESS with a VPN!
We strongly recommend using Trust.Zone VPN to anonymize your torrenting. It's FREE!
Get VPN Now for FREE!
ETTV Recommended TV Shows
Taken.2017.S02E13.HDTV.x264-SVA[ettv] torrent
Ransom.S02E08.HDTV.x264-SVA[ettv] torrent
Patrick.Melrose.S01E04.INTERNAL.WEB.H264-DEFLATE[ettv] torrent
Survivor.New.Zealand.s02e07.720p.WEBRIP.x264-CRR torrent

ETTV Recommended Xvid
Mistrust.2018.HDRip.XViD-ETRG torrent
Sherlock.Gnomes.2018.BRRip.XViD-ETRG torrent
Journeys.End.2017.BRRip.XViD-ETRG torrent
Edge.of.Isolation.2018.HDRip.XViD-ETRG torrent

ETTV Recommended HD
The.Cured.2017.MULTi.Bluray.1080p.x264.DTS-HDMA.5.1-DTOne torrent
The.Square.2017.Multi.Bluray.x264.DTS-HDMA.5.1-DTOne torrent
Tomb.Raider.2018.Multi.BluRay.1080p.x264.Atmos.7.1-DTOne torrent
The Foreigner 2017 Blu-ray 1080p x264 DTS-HDMA 5.1-DTOne torrent

ETTV Recommended Cam
Breaking in 2018 HDCAM ENG X264-THAN0S torrent
Kings 2018 HDCAM ENG X264-THAN0S torrent
Solo A Star Wars Story 2018 NEW HDTS XViD.AC3-ETRG torrent
Deadpool 2 2018 NEW 720p HD-TC X264-CPG torrent

ETTV Recommended Foreign
Skif.2018.Multi.Bluray.1080p.x264.DTS-HDMA.5.1-DTOne torrent
Veerey.Ki.Wedding.(2018).1-3.V2.Desi.Pre.Rip.x264.AC3 - DTOne.Exclusive torrent
Veronica.2017.MULTI.1080p.BluRay.x264.DTS.5.1-DTOne torrent
Carry.On.Jatta.2.(2018).1-3.Desi.Pre.Rip.x264.AC3 - DTOne Exclusive torrent

Social

Loading...

Download Torrent "The Expanse S03E07 (1080p WEBRip x265 HEVC 10bit AAC 5.1 Joy) [UTR]"

IMDB Details
Description:

N/A

Genre:

N/A

Download Torrent (Magnet)
Download Torrent (File)
Seeds: 18
Leechers: 4
Completed: 291 
Last Checked: 30-05-2018 16:41:37


Loading...
Details
Title:The Expanse S03E07 (1080p WEBRip x265 HEVC 10bit AAC 5.1 Joy) [UTR]
Description:





Media Information
General
Format                                   : Matroska
Format version                           : Version 4 / Version 2
File size                                : 453 MiB
Duration                                 : 44 min 35 s
Overall bit rate                         : 1 420 kb/s
Encoded date                             : UTC 2018-05-25 12:30:46
Writing application                      : mkvmerge v20.0.0 ('I Am The Sun') 64-bit
Writing library                          : libebml v1.3.5 + libmatroska v1.4.8
Writing frontend                         : StaxRip v1.7.0.6

Video
ID                                       : 1
Format                                   : HEVC
Format/Info                              : High Efficiency Video Coding
Format profile                           : Main [email protected]@Main
Codec ID                                 : V_MPEGH/ISO/HEVC
Duration                                 : 44 min 34 s
Bit rate                                 : 1 199 kb/s
Width                                    : 1 920 pixels
Height                                   : 1 080 pixels
Display aspect ratio                     : 16:9
Frame rate mode                          : Constant
Frame rate                               : 23.976 (24000/1001) FPS
Color space                              : YUV
Chroma subsampling                       : 4:2:0
Bit depth                                : 10 bits
Bits/(Pixel*Frame)                       : 0.024
Stream size                              : 382 MiB (84%)
Writing library                          : x265 2.7+2-22c127ff05d5:[Windows][MSVC 1900][64 bit] 10bit
Encoding settings                        : cpuid=1173503 / frame-threads=3 / numa-pools=8 / wpp / no-pmode / no-pme / no-psnr / ssim / log-level=2 / input-csp=1 / input-res=1920x1080 / interlace=0 / total-frames=64135 / level-idc=0 / high-tier=1 / uhd-bd=0 / ref=4 / no-allow-non-conformance / no-repeat-headers / annexb / no-aud / no-hrd / info / hash=0 / no-temporal-layers / open-gop / min-keyint=23 / keyint=250 / gop-lookahead=0 / bframes=4 / b-adapt=2 / b-pyramid / bframe-bias=0 / rc-lookahead=25 / lookahead-slices=4 / scenecut=40 / radl=0 / no-intra-refresh / ctu=64 / min-cu-size=8 / rect / no-amp / max-tu-size=32 / tu-inter-depth=1 / tu-intra-depth=1 / limit-tu=0 / rdoq-level=2 / dynamic-rd=0.00 / ssim-rd / signhide / no-tskip / nr-intra=0 / nr-inter=0 / no-constrained-intra / strong-intra-smoothing / max-merge=3 / limit-refs=3 / limit-modes / me=3 / subme=3 / merange=57 / temporal-mvp / weightp / weightb / no-analyze-src-pics / deblock=0:0 / sao / sao-non-deblock / rd=6 / no-early-skip / rskip / no-fast-intra / no-tskip-fast / no-cu-lossless / b-intra / no-splitrd-skip / rdpenalty=0 / psy-rd=5.00 / psy-rdoq=1.55 / no-rd-refine / no-lossless / cbqpoffs=0 / crqpoffs=0 / rc=abr / bitrate=1200 / qcomp=0.60 / qpstep=4 / stats-write=0 / stats-read=2 / cplxblur=20.0 / qblur=0.5 / ipratio=1.40 / pbratio=1.30 / aq-mode=3 / aq-strength=1.00 / cutree / zone-count=0 / no-strict-cbr / qg-size=32 / no-rc-grain / qpmax=69 / qpmin=0 / no-const-vbv / sar=0 / overscan=0 / videoformat=5 / range=0 / colorprim=2 / transfer=2 / colormatrix=2 / chromaloc=0 / display-window=0 / max-cll=0,0 / min-luma=0 / max-luma=1023 / log2-max-poc-lsb=8 / vui-timing-info / vui-hrd-info / slices=1 / no-opt-qp-pps / no-opt-ref-list-length-pps / multi-pass-opt-rps / scenecut-bias=0.05 / no-opt-cu-delta-qp / no-aq-motion / no-hdr / no-hdr-opt / no-dhdr10-opt / analysis-reuse-level=5 / scale-factor=0 / refine-intra=0 / refine-inter=0 / refine-mv=0 / limit-sao / ctu-info=0 / no-lowpass-dct / refine-mv-type=0 / copy-pic=1
Default                                  : Yes
Forced                                   : No

Audio
ID                                       : 2
Format                                   : AAC
Format/Info                              : Advanced Audio Codec
Format profile                           : HE-AAC / LC
Codec ID                                 : A_AAC
Duration                                 : 44 min 34 s
Bit rate                                 : 219 kb/s
Channel(s)                               : 6 channels
Channel positions                        : Front: L C R, Side: L R, LFE
Sampling rate                            : 48.0 kHz / 24.0 kHz
Frame rate                               : 23.438 FPS (1024 spf)
Compression mode                         : Lossy
Delay relative to video                  : 31 ms
Stream size                              : 70.0 MiB (15%)
Language                                 : English
Default                                  : Yes
Forced                                   : No

Subtitle #1
ID                                       : 3
Format                                   : UTF-8
Codec ID                                 : S_TEXT/UTF8
Codec ID/Info                            : UTF-8 Plain Text
Duration                                 : 43 min 37 s
Bit rate                                 : 67 b/s
Count of elements                        : 731
Stream size                              : 21.4 KiB (0%)
Language                                 : English
Default                                  : No
Forced                                   : No

Subtitle #2
ID                                       : 4
Format                                   : UTF-8
Codec ID                                 : S_TEXT/UTF8
Codec ID/Info                            : UTF-8 Plain Text
Duration                                 : 43 min 37 s
Bit rate                                 : 75 b/s
Count of elements                        : 866
Stream size                              : 24.1 KiB (0%)
Language                                 : English
Default                                  : No
Forced                                   : No

Menu
00:00:00.000                             : en:Studio Logo
00:00:06.000                             : en:Previously On
00:00:34.000                             : en:Opening Credits
00:01:34.000                             : en:Scene 4
00:16:48.000                             : en:Scene 5
00:29:51.000                             : en:Scene 6
00:43:34.000                             : en:End Credits

Source Information
Release: The.Expanse.S03E07.Delta-V.1080p.AMZN.WEB-DL.DDP5.1.H.264-NTG(2.06 GBs)



UTR wrote:

Note From UTR
We have no issue with individuals posting or re-uploading our torrents on a platform we aren't on. However, if this is something you'd like to do, please do so in a 'as-is' format. We ask that you do not create a new torrent, include all descriptions you see above including the UTR logo, tags, notes and screenshots. If you'd like to become a permanent poster on a website we don't post to, feel free to get in contact with a UniTeam member.

If possible please donate: BTC 1QA5fum5AyXvWzdVCkQzUNvw3Ef15fHRaR


Category:TV > HEVC/x265
Lang:English  English
Total Size:453 MB
Info Hash:7c0f4fcaea0a69af1ac678e979def250d7b131e4
Added By:UTR
Date Added:30-05-2018 16:41:33

Files

File List: 
 File Size
The Expanse S03E07 Delta-V (1080p x265 10bit S90 Joy).mkv453 MB



Loading...
Comments

There are currently no comments. Be the first one to write something !

Disclaimer: None of the files shown here are actually hosted or transmitted by this server. The links are provided solely by this site's users. The site moderation is also a service provided by the site's users. The administrator of this site (ettv.tv) cannot be held responsible for what its users post, or any other actions of its users. You may not use this site to distribute or download any material when you do not have the legal rights to do so. It is your own responsibility to adhere to these terms.