google play services | Auf schlimmer und ewig | Great Rail Restorations S01E01 720p HDTV x264-QPEL 45 minutes
the secret life of pets Arrow.S06E02.HDTV.x264 LOL ettv Lost in Space 2018 s01e07 The walking dead supergirl s03e21 big bang theory español the crossing The Flash hereditary fear the walking dead s04e07 fear the walking dead S.W.A.T.2017.S01E01.HDTV.x264 KILLERS ettv Ettv masterchef vikings ddr wwe raw street outlaws Legion the expanse westworld s02 star trek discovery español hindi young sheldon ethd 2018 ita krypton Supernatural wwe Brooklyn Nine Nine Gotham arrow español Seal Team Masterchef Australia Blindspot Survivor elementary quantico black panther judge judy S22 Avengers Infinity War etrg italian westworld arrow dtone westworld s02e07 last week tonight deadpool colony tomb raider 2018 killing eve avengers infinity war 2018 deadpool 2 family guy supergirl billions silicon valley tomb raider 13 reasons why evo the 100 etmovies fgt lucifer the originals more s12e13 handmaids tale into the badlands READY PLAYER ONE 
Warning! Use a VPN When Downloading Torrents!
Your IP Address is 172.81.144.194. Location is United States
Your Internet Provider is tracking your torrent activity! Hide your IP ADDRESS with a VPN!
We strongly recommend using Trust.Zone VPN to anonymize your torrenting. It's FREE!
Get VPN Now for FREE!
ETTV Recommended TV Shows
The.100.S05E06.WEBRip.x264-PBS[ettv] torrent
Carter.S01E04.HDTV.x264-aAF[ettv] torrent
Legion.S02E10.HDTV.x264-SVA[ettv] torrent
Animal.Kingdom.US.S03E02.WEBRip.x264-TBS[ettv] torrent

ETTV Recommended Xvid
Chapter.and.Verse.2017.HDRip.XViD-ETRG torrent
How.to.Talk.to.Girls.at.Parties.2017.BRRip.XViD-ETRG torrent
The.Rake.2018.HDRip.XViD-ETRG torrent
Unsane.2018.BRRip.XViD-ETRG torrent

ETTV Recommended HD
Freak.Show.2017.BluRay.1080p.x264.DTS-HD.MA5.1-DTOne torrent
Thoroughbreds.2017.Multi.BluRay.1080p.x264.DTS-HD.MA5.1-DTOne torrent
Jurassic Park III 2001 UHD 2160p Blu-ray HDR Multi DTS-X 7.1 -DTOne torrent
Star.Wars.4K77.2160p.UHD.no-DNR.35mm.x265-v1.0 [TN1] -DTOne torrent

ETTV Recommended Cam
Breaking in 2018 HDCAM ENG X264-THAN0S torrent
Kings 2018 HDCAM ENG X264-THAN0S torrent
Solo A Star Wars Story 2018 NEW HDTS XViD.AC3-ETRG torrent
Deadpool 2 2018 HD-TS.XViD.AC3-ETRG torrent

ETTV Recommended Foreign
Veer (Vivegam) (2018) HDRip x264 (Hindi-Telugu-Tamil)  - DTOne torrent
Sethupathi (2017) 720p UntoucheD WEB HD - AVC - AAC - E-Subs - DTOne Exclusive torrent
Missing.(2018).1-3.Web.Rip.x264.AC3.ESub-DTOne.Exclusive torrent
Indu Sarkar 2017 1080p WEB-DL AVC AAC 2.0 -DTOne ExCluSive torrent

Social

Loading...

Download Torrent "Van Damme 36 Kickboxer Vengeance (2016) (1080p BluRay 10bit x265 HEVC AAC 5..."

IMDB Details
Description:

N/A

Genre:

N/A

Download Torrent (Magnet)
Download Torrent (File)
Seeds: 36
Leechers: 8
Completed: 370 
Last Checked: 30-05-2018 16:47:21


Loading...
Details
Title:Van Damme 36 Kickboxer Vengeance (2016) (1080p BluRay 10bit x265 HEVC AAC 5...
Description:





Media Information
General
Format                                   : Matroska
Format version                           : Version 4 / Version 2
File size                                : 3.14 GiB
Duration                                 : 1 h 30 min
Overall bit rate                         : 4 984 kb/s
Encoded date                             : UTC 2018-05-30 05:59:57
Writing application                      : mkvmerge v23.0.0 ('The Bride Said No') 64-bit
Writing library                          : libebml v1.3.6 + libmatroska v1.4.9

Video
ID                                       : 1
Format                                   : HEVC
Format/Info                              : High Efficiency Video Coding
Format profile                           : Main [email protected]@Main
Codec ID                                 : V_MPEGH/ISO/HEVC
Duration                                 : 1 h 30 min
Bit rate                                 : 4 741 kb/s
Width                                    : 1 920 pixels
Height                                   : 1 080 pixels
Display aspect ratio                     : 16:9
Frame rate mode                          : Constant
Frame rate                               : 23.976 (24000/1001) FPS
Color space                              : YUV
Chroma subsampling                       : 4:2:0
Bit depth                                : 10 bits
Bits/(Pixel*Frame)                       : 0.095
Stream size                              : 2.99 GiB (95%)
Writing library                          : x265 2.8+3-450421921079:[Windows][MSVC 1914][64 bit] 10bit
Encoding settings                        : cpuid=1111039 / frame-threads=2 / numa-pools=4 / wpp / no-pmode / no-pme / no-psnr / no-ssim / log-level=2 / input-csp=1 / input-res=1920x1080 / interlace=0 / total-frames=129879 / level-idc=0 / high-tier=1 / uhd-bd=0 / ref=4 / no-allow-non-conformance / no-repeat-headers / annexb / no-aud / no-hrd / info / hash=0 / no-temporal-layers / open-gop / min-keyint=23 / keyint=250 / gop-lookahead=0 / bframes=8 / b-adapt=2 / b-pyramid / bframe-bias=0 / rc-lookahead=50 / lookahead-slices=4 / scenecut=40 / radl=0 / no-intra-refresh / ctu=64 / min-cu-size=8 / no-rect / no-amp / max-tu-size=32 / tu-inter-depth=1 / tu-intra-depth=1 / limit-tu=0 / rdoq-level=2 / dynamic-rd=0.00 / no-ssim-rd / signhide / no-tskip / nr-intra=0 / nr-inter=0 / no-constrained-intra / no-strong-intra-smoothing / max-merge=3 / limit-refs=3 / limit-modes / me=3 / subme=5 / merange=57 / temporal-mvp / weightp / no-weightb / no-analyze-src-pics / deblock=-3:-3 / no-sao / no-sao-non-deblock / rd=4 / no-early-skip / no-rskip / no-fast-intra / no-tskip-fast / no-cu-lossless / b-intra / no-splitrd-skip / rdpenalty=0 / psy-rd=1.00 / psy-rdoq=5.00 / no-rd-refine / no-lossless / cbqpoffs=0 / crqpoffs=0 / rc=crf / crf=19.5 / qcomp=0.60 / qpstep=4 / stats-write=0 / stats-read=0 / ipratio=1.40 / pbratio=1.30 / aq-mode=2 / aq-strength=1.00 / cutree / zone-count=0 / no-strict-cbr / qg-size=32 / no-rc-grain / qpmax=69 / qpmin=0 / no-const-vbv / sar=0 / overscan=0 / videoformat=5 / range=0 / colorprim=2 / transfer=2 / colormatrix=2 / chromaloc=0 / display-window=0 / max-cll=0,0 / min-luma=0 / max-luma=1023 / log2-max-poc-lsb=8 / vui-timing-info / vui-hrd-info / slices=1 / no-opt-qp-pps / no-opt-ref-list-length-pps / no-multi-pass-opt-rps / scenecut-bias=0.05 / no-opt-cu-delta-qp / no-aq-motion / no-hdr / no-hdr-opt / no-dhdr10-opt / no-idr-recovery-sei / analysis-reuse-level=5 / scale-factor=0 / refine-intra=0 / refine-inter=0 / refine-mv=0 / no-limit-sao / ctu-info=0 / no-lowpass-dct / refine-mv-type=0 / copy-pic=1 / max-ausize-factor=1.0 / no-dynamic-refine / no-single-sei
Language                                 : English
Default                                  : Yes
Forced                                   : No

Audio
ID                                       : 2
Format                                   : AAC
Format/Info                              : Advanced Audio Codec
Format profile                           : LC
Codec ID                                 : A_AAC
Duration                                 : 1 h 30 min
Bit rate                                 : 224 kb/s
Channel(s)                               : 6 channels
Channel positions                        : Front: L C R, Side: L R, LFE
Sampling rate                            : 32.0 kHz
Frame rate                               : 31.250 FPS (1024 spf)
Compression mode                         : Lossy
Stream size                              : 145 MiB (4%)
Language                                 : English
Default                                  : Yes
Forced                                   : No

Subtitle
ID                                       : 3
Format                                   : PGS
Muxing mode                              : zlib
Codec ID                                 : S_HDMV/PGS
Codec ID/Info                            : Picture based subtitle format used on BDs/HD-DVDs
Duration                                 : 1 h 23 min
Bit rate                                 : 38.3 kb/s
Count of elements                        : 1599
Stream size                              : 23.0 MiB (1%)
Language                                 : English
Default                                  : Yes
Forced                                   : No

Menu
00:00:00.000                             : en:Chapter 1
00:09:58.806                             : en:Chapter 2
00:19:27.499                             : en:Chapter 3
00:30:01.382                             : en:Chapter 4
00:39:43.339                             : en:Chapter 5
00:50:19.182                             : en:Chapter 6
01:00:29.417                             : en:Chapter 7
01:08:08.834                             : en:Chapter 8
01:14:56.825                             : en:Chapter 9
01:24:47.290                             : en:Chapter 10

Source Information
Release: Unknown Source/NO-GROUP



UTR wrote:

Note From UTR
We have no issue with individuals posting or re-uploading our torrents on a platform we aren't on. However, if this is something you'd like to do, please do so in a 'as-is' format. We ask that you do not create a new torrent, include all descriptions you see above including the UTR logo, tags, notes and screenshots. If you'd like to become a permanent poster on a website we don't post to, feel free to get in contact with a UniTeam member.

If possible please donate: BTC 1QA5fum5AyXvWzdVCkQzUNvw3Ef15fHRaR


Category:Movies > HEVC/x265
Lang:English  English
Total Size:3.14 GB
Info Hash:2a4b24a917196ded9a5ba064af7ef6469d88d742
Added By:UTR
Date Added:30-05-2018 16:47:17

Files

File List: 
 File Size
Kickboxer.Vengeance.(2016).1080p.BluRay.10-bit.x265.AAC.5.1 Qman[UTR].mkv3.14 GB



Loading...
Comments

There are currently no comments. Be the first one to write something !

Disclaimer: None of the files shown here are actually hosted or transmitted by this server. The links are provided solely by this site's users. The site moderation is also a service provided by the site's users. The administrator of this site (ettv.tv) cannot be held responsible for what its users post, or any other actions of its users. You may not use this site to distribute or download any material when you do not have the legal rights to do so. It is your own responsibility to adhere to these terms.